aoloffline
版主

[2011] [台灣] [戰爭] [BD-1080P] [BT下載]赛德克·巴莱 Warriors.Of.The.Rainbow.2011.1080p.BluRay.x264.DTS-FGT 10.9GB

-->


◎译  名 赛德克·巴莱/赛德克·巴莱 (上下)合集/赛德克·巴莱 剪辑版/真正的人

◎片  名 賽德克·巴萊

◎年  代 2011

◎國  家 台灣

◎類  別 劇情/曆史/戰爭

◎語  言 賽德克語/閩南語/日語

◎上映日期 2012-05-10(中國大陸)

◎豆瓣评分 8.7/10 from 88,277 users

◎豆瓣鏈接 https://movie.douban.com/subject/3993559/

◎BT之家整理 http://www.btbtt.co  

◎片  長 153分鍾(中國大陸/國際版)

◎导  演 魏德圣 Te-Sheng Wei

◎主  演 林庆台 Ching-tai Lin

      马志翔 Zhixiang Ma

      安藤政信 Masanobu And?

      河原萨布 Sabu Kawahara

      徐诣帆 Yi-Fan Hsu

      温岚 Landy Wen

      罗美玲 Mei-Ling Lo

      徐若瑄 Vivian Hsu

      大庆 Da-Ching

      林源杰 Yuan-jie Lin


◎簡  介


  此條目爲國內上映合集條目,上下集條目分別爲:

  赛德克·巴莱(上)太阳旗 http://movie.douban.com/subject/10450409/

  赛德克·巴莱(下)彩虹桥 http://movie.douban.com/subject/6393127/

  在险恶的日据时代,赛德克族被迫失去自己的文化信仰,男人须服劳役不得狩猎、女人帮佣不能编织彩衣,骁勇善战的英雄莫那鲁道(林庆台 Ching-tai Lin 饰),见证三十年来的压迫统治。因一场误会种下日警和赛德克族的紧张关係,自此族人便活在恐遭日警报复的阴霾中,忍辱负重的莫那鲁道在深思后,虽知将面临灭族危机,但他明白唯有挺身为民族尊严反击,才能成为真正的赛德克人,于是决心带领族人循着祖灵之训示,夺回属于他们的猎场……


◎獲獎情況


  第68届威尼斯電影节  (2011)

  金狮奖(提名) 魏德圣


  第48届台北金马影展  (2011)

  金马奖 最佳剧情片

  金马奖 最佳导演(提名) 魏德圣

  金马奖 最佳男配角 徐诣帆

  金马奖 最佳新演员(提名) 徐诣帆 / 林庆台 / 林源杰

  金马奖 最佳摄影(提名) 秦鼎昌

  金马奖 最佳美术设计(提名) 种田阳平

  金马奖 最佳造型设计(提名) 邱若龙 / 刘莉棋 / 林欣宜 / 杜美玲

  金马奖 最佳动作设计(提名) 沈在元 / 梁吉泳

  金马奖 最佳原创配乐 何国杰

  金马奖 最佳原创歌曲(提名)

  金马奖 最佳音效 汤湘竹 / 杜笃之

  觀衆票選最佳影片


  第31届香港電影金像奖  (2012)

  最佳两岸华语電影(提名)


  第6届亚洲電影大奖  (2012)

  最佳電影(提名)

  最佳导演(提名) 魏德圣

  最佳男配角(提名) 马志翔

  最佳摄影(提名) 秦鼎昌

  最佳美术指导(提名) 种田阳平

  最佳原创音樂(提名) 何国杰


  第12届华语電影传媒大奖  (2012)

  最佳電影

  最佳导演(提名) 魏德圣

  最佳新演员(提名) 林庆台 / 徐诣帆


  第3届豆瓣電影鑫像奖  (2013)

  鑫豆单元 最佳影片(华语)

  鑫豆单元 最佳导演(华语) 魏德圣

  鑫豆单元 最佳男演员(华语)(提名) 林庆台

  鑫豆单元 最佳配乐(提名)


Video
ID                                       : 1
Format                                   : AVC
Format/Info                              : Advanced Video Codec
Format profile                           : High@L4.1
Format settings, CABAC                   : Yes
Format settings, ReFrames                : 5 frames
Codec ID                                 : V_MPEG4/ISO/AVC
Duration                                 : 2h 34mn
Bit rate                                 : 8 623 Kbps
Width                                    : 1 920 pixels
Height                                   : 832 pixels
Display aspect ratio                     : 2.35:1
Frame rate mode                          : Constant
Frame rate                               : 24.000 fps
Color space                              : YUV
Chroma subsampling                       : 4:2:0
Bit depth                                : 8 bits
Scan type                                : Progressive
Bits/(Pixel*Frame)                       : 0.225
Stream size                              : 9.09 GiB (83%)
Writing library                          : x264 core 125 r2208 d9d2288
Encoding settings                        : cabac=1 / ref=5 / deblock=1:0:0 / analyse=0x3:0x133 / me=umh / subme=7 / psy=1 / psy_rd=1.00:0.00 / mixed_ref=1 / me_range=16 / chroma_me=1 / trellis=1 / 8x8dct=1 / cqm=0 / deadzone=21,11 / fast_pskip=0 / chroma_qp_offset=-2 / threads=6 / lookahead_threads=1 / sliced_threads=0 / nr=0 / decimate=1 / interlaced=0 / bluray_compat=0 / constrained_intra=0 / bframes=3 / b_pyramid=2 / b_adapt=1 / b_bias=0 / direct=1 / weightb=1 / open_gop=0 / weightp=2 / keyint=240 / keyint_min=24 / scenecut=40 / intra_refresh=0 / rc_lookahead=40 / rc=2pass / mbtree=1 / bitrate=8623 / ratetol=1.0 / qcomp=0.60 / qpmin=10 / qpmax=51 / qpstep=4 / cplxblur=20.0 / qblur=0.5 / ip_ratio=1.40 / aq=1:1.00
Language                                 : English
Default                                  : Yes
Forced                                   : No

Audio
ID                                       : 2
Format                                   : DTS
Format/Info                              : Digital Theater Systems
Mode                                     : 16
Format settings, Endianness              : Big
Codec ID                                 : A_DTS
Duration                                 : 2h 34mn
Bit rate mode                            : Constant
Bit rate                                 : 1 509 Kbps
Channel(s)                               : 6 channels
Channel positions                        : Front: L C R, Side: L R, LFE
Sampling rate                            : 48.0 KHz
Frame rate                               : 93.750 fps (512 spf)
Bit depth                                : 24 bits
Compression mode                         : Lossy
Stream size                              : 1.63 GiB (15%)
Default                                  : Yes
Forced                                   : No

Text
ID                                       : 3
Format                                   : UTF-8
Codec ID                                 : S_TEXT/UTF8
Codec ID/Info                            : UTF-8 Plain Text
Language                                 : English
Default                                  : Yes
Forced                                   : Yes






1 個附件 售價 大小 下載 時間

Warriors.Of.The.Rainbow.Seediq.Bale.2011.1080p.BluRay.x264.DTS-FGT[btbtt.co].torrent 0 金币 55.32K 4440 次 5月前

#1樓
发帖時間:2017-01-06 21:24:12   |   回複數:5
blue23
超凡入聖№
感謝樓主分享
5月前 #2樓
liyouchai
超凡入聖№
謝謝樓主分享資源
5月前 #3樓
911degrees
一代宗師
非常感謝,謝謝分享
5月前 #4樓
jokingcheung
一代宗師
謝謝分享
5月前 #5樓
altta777
武林高手
下過了,看到這篇特意進來,贊一個!
5月前 #6樓
遊客組