aoloffline
版主

[2012] [歐美] [驚悚] [BD-1080P] [BT下載]死亡城市/Taeter市 Taeter.City.2012.1080p.BluRay.x264-AMBASSADOR 5.4GB

-->

◎譯  名 死亡城市/Taeter市

◎片  名 Taeter City

◎年  代 2012

◎國  家 意大利

◎類  別 動作/科幻/驚悚

◎語  言 英語

◎上映日期 2012

◎IMDb评分  4.9/10 from 644 users

◎IMDb链接  http://www.imdb.com/title/tt2306836/

◎豆瓣评分 6.5/10 from 17 users

◎豆瓣鏈接 https://movie.douban.com/subject/25872799/

◎BT之家整理 

◎片  長 73分鍾

◎导  演 Giulio De Santi


◎簡  介


  A secret radio wave emission is used to bring the crime rates in Taeter City next to zero, up until the wave system's malfunction.


Video
ID                                       : 1
Format                                   : AVC
Format/Info                              : Advanced Video Codec
Format profile                           : [email protected]
Format settings, CABAC                   : Yes
Format settings, ReFrames                : 4 frames
Codec ID                                 : V_MPEG4/ISO/AVC
Duration                                 : 1h 12mn
Bit rate                                 : 10.5 Mbps
Width                                    : 1 920 pixels
Height                                   : 1 080 pixels
Display aspect ratio                     : 16:9
Frame rate mode                          : Constant
Frame rate                               : 25.000 fps
Color space                              : YUV
Chroma subsampling                       : 4:2:0
Bit depth                                : 8 bits
Scan type                                : Progressive
Bits/(Pixel*Frame)                       : 0.203
Stream size                              : 5.25 GiB (96%)
Writing library                          : x264 core 140 r2377 1ca7bb9
Encoding settings                        : cabac=1 / ref=4 / deblock=1:0:0 / analyse=0x3:0x113 / me=umh / subme=7 / psy=1 / psy_rd=1.00:0.00 / mixed_ref=1 / me_range=16 / chroma_me=1 / trellis=1 / 8x8dct=1 / cqm=0 / deadzone=21,11 / fast_pskip=0 / chroma_qp_offset=-2 / threads=12 / lookahead_threads=2 / sliced_threads=0 / nr=0 / decimate=1 / interlaced=0 / bluray_compat=0 / constrained_intra=0 / bframes=3 / b_pyramid=2 / b_adapt=2 / b_bias=0 / direct=3 / weightb=1 / open_gop=0 / weightp=2 / keyint=250 / keyint_min=25 / scenecut=40 / intra_refresh=0 / rc_lookahead=50 / rc=2pass / mbtree=1 / bitrate=10526 / ratetol=1.0 / qcomp=0.60 / qpmin=0 / qpmax=69 / qpstep=4 / cplxblur=20.0 / qblur=0.5 / ip_ratio=1.40 / aq=1:1.00
Default                                  : Yes
Forced                                   : No

Audio
ID                                       : 2
Format                                   : AC-3
Format/Info                              : Audio Coding 3
Mode extension                           : CM (complete main)
Format settings, Endianness              : Big
Codec ID                                 : A_AC3
Duration                                 : 1h 12mn
Bit rate mode                            : Constant
Bit rate                                 : 192 Kbps
Channel(s)                               : 2 channels
Channel positions                        : Front: L R
Sampling rate                            : 48.0 KHz
Frame rate                               : 31.250 fps (1536 spf)
Compression mode                         : Lossy
Stream size                              : 100 MiB (2%)
Language                                 : English
Default                                  : Yes
Forced                                   : No





1 個附件 售價 大小 下載 時間

Taeter.City.2012.1080p.BluRay.x264-AMBASSADOR[btbtt.co].torrent 0 金币 55.10K 598 次 16天前

#1樓
发帖時間:2017-01-06 21:06:26   |   回複數:5
blue23
超凡入聖№
感謝樓主分享
16天前 #2樓
liyouchai
一代宗師
謝謝樓主分享資源
16天前 #3樓
albb2188
武林高手
感謝樓主提供分享影片資源!
16天前 #4樓
911degrees
一代宗師
非常感謝,謝謝分享
15天前 #5樓
xw_hylz
武林高手
超重口。
13天前 #6樓
遊客組