aoloffline
版主

[更 早] [歐美] [喜劇] [BD-1080P] [BT下載]床上女主人 Hostess.in.Heat.1973.1080p.BluRay.x264-AMBASSADOR 5.47GB

-->

◎譯  名 床上女主人

◎片  名 Die Betthostessen

◎年  代 1972

◎國  家 瑞士

◎類  別 喜劇

◎語  言 德語

◎上映日期 1972

◎IMDb评分  4.6/10 from 49 users

◎IMDb链接  http://www.imdb.com/title/tt0068268/

◎BT之家整理 

◎导  演 Erwin C. Dietrich

◎主  演 Ingrid Steeger

      Karin Hofmann

      Christa Free


◎簡  介


  A hostess entertains by telling funny and sexy tales.


Video
ID                                       : 1
Format                                   : AVC
Format/Info                              : Advanced Video Codec
Format profile                           : [email protected]
Format settings, CABAC                   : Yes
Format settings, ReFrames                : 4 frames
Codec ID                                 : V_MPEG4/ISO/AVC
Duration                                 : 1h 18mn
Bit rate                                 : 9 140 Kbps
Width                                    : 1 920 pixels
Height                                   : 1 056 pixels
Display aspect ratio                     : 16:9
Frame rate mode                          : Constant
Frame rate                               : 24.000 fps
Color space                              : YUV
Chroma subsampling                       : 4:2:0
Bit depth                                : 8 bits
Scan type                                : Progressive
Bits/(Pixel*Frame)                       : 0.188
Stream size                              : 4.94 GiB (90%)
Writing library                          : x264 core 146 r2538 121396c
Encoding settings                        : cabac=1 / ref=4 / deblock=1:0:0 / analyse=0x3:0x113 / me=umh / subme=7 / psy=1 / psy_rd=1.00:0.00 / mixed_ref=1 / me_range=16 / chroma_me=1 / trellis=1 / 8x8dct=1 / cqm=0 / deadzone=21,11 / fast_pskip=0 / chroma_qp_offset=-2 / threads=12 / lookahead_threads=2 / sliced_threads=0 / nr=0 / decimate=1 / interlaced=0 / bluray_compat=0 / constrained_intra=0 / bframes=3 / b_pyramid=2 / b_adapt=2 / b_bias=0 / direct=3 / weightb=1 / open_gop=0 / weightp=2 / keyint=250 / keyint_min=24 / scenecut=40 / intra_refresh=0 / rc_lookahead=50 / rc=2pass / mbtree=1 / bitrate=9140 / ratetol=1.0 / qcomp=0.60 / qpmin=0 / qpmax=69 / qpstep=4 / cplxblur=20.0 / qblur=0.5 / ip_ratio=1.40 / aq=1:1.00
Default                                  : Yes
Forced                                   : No

Audio
ID                                       : 2
Format                                   : DTS
Format/Info                              : Digital Theater Systems
Mode                                     : 16
Format settings, Endianness              : Big
Codec ID                                 : A_DTS
Duration                                 : 1h 18mn
Bit rate mode                            : Constant
Bit rate                                 : 768 Kbps
Channel(s)                               : 2 channels
Channel positions                        : Front: L R
Sampling rate                            : 48.0 KHz
Frame rate                               : 93.750 fps (512 spf)
Bit depth                                : 24 bits
Compression mode                         : Lossy
Stream size                              : 434 MiB (8%)
Language                                 : English
Default                                  : Yes
Forced                                   : No

Text
ID                                       : 3
Format                                   : UTF-8
Codec ID                                 : S_TEXT/UTF8
Codec ID/Info                            : UTF-8 Plain Text
Language                                 : English
Default                                  : Yes
Forced                                   : No





1 個附件 售價 大小 下載 時間

Hostess.in.Heat.1973.1080p.BluRay.x264-AMBASSADOR[btbtt.co].torrent 0 金币 55.23K 4209 次 4月前

#1樓
請幫忙分享到: | Twitter | Google+ | 微博 | 更多… 发帖時間:2017-01-06 20:56:06   |   回複數:3
blue23
超凡入聖№
感謝樓主分享
4月前 #2樓
liyouchai
超凡入聖№
謝謝樓主分享資源
4月前 #3樓
911degrees
一代宗師
非常感謝,謝謝分享
4月前 #4樓
遊客組