aoloffline
版主

[2012] [歐美] [恐怖] [BD-1080P] [BT下載]黑夜的艺术 Art.of.Darkness.2012.UNCUT.1080p.BluRay.x264-AMBASSADOR 6.5GB

-->

◎譯  名 黑夜的藝術

◎片  名 Art of Darkness

◎年  代 2012

◎國  家 英國

◎類  別 恐怖

◎語  言 英語

◎上映日期 2012-10-05

◎IMDb评分  3.0/10 from 192 users

◎IMDb链接  http://www.imdb.com/title/tt2162574/

◎BT之家整理 

◎片  長 90分鍾

◎导  演 Steve Laurence

◎主  演 Emily Baxter

      Martin Laurence

      Ryan Elliott

      Adrian Annis


◎簡  介


  ART HOUSE MASSACRE is a nail bitingly tense suspense horror set over one gruesome night. Ben (MARTIN LAURENCE) and Liz (EMILY BAXTER) are a married couple still coming to terms with Liz's recent miscarriage. Too distraught in the weeks after it, she quit her nursing job, and Ben is struggling to hold on to his accountancy job after a round of redundancies. Things are not that great between them right now. In a bid to make some money on the side to help out, Liz accepts a shady modeling job for Philip (RYAN ELLIOTT), an intense photographer who works from his sprawling house in the middle of nowhere. But Philip isn't what he seems... Now: Liz is trapped in the dungeon-like basement of the house, in the clutches of a murderous psychopath with artistic pretensions, and caught up in an organ-harvesting nightmare. Her only hope is Ben, the one person who believes she's in danger It's a race against time to save her, but can Ben get to Liz before she becomes Philip's next victim...?



Video
ID                                       : 1
Format                                   : AVC
Format/Info                              : Advanced Video Codec
Format profile                           : [email protected]
Format settings, CABAC                   : Yes
Format settings, ReFrames                : 5 frames
Codec ID                                 : V_MPEG4/ISO/AVC
Duration                                 : 1h 30mn
Bit rate                                 : 8 805 Kbps
Width                                    : 1 920 pixels
Height                                   : 816 pixels
Display aspect ratio                     : 2.35:1
Frame rate mode                          : Constant
Frame rate                               : 23.976 (24000/1001) fps
Original frame rate                      : 23.976 (23976/1000) fps
Color space                              : YUV
Chroma subsampling                       : 4:2:0
Bit depth                                : 8 bits
Scan type                                : Progressive
Bits/(Pixel*Frame)                       : 0.234
Stream size                              : 5.47 GiB (83%)
Writing library                          : x264 core 142 r2431 ac76440
Encoding settings                        : cabac=1 / ref=5 / deblock=1:0:0 / analyse=0x3:0x113 / me=umh / subme=7 / psy=1 / psy_rd=1.00:0.00 / mixed_ref=1 / me_range=16 / chroma_me=1 / trellis=1 / 8x8dct=1 / cqm=0 / deadzone=21,11 / fast_pskip=0 / chroma_qp_offset=-2 / threads=12 / lookahead_threads=2 / sliced_threads=0 / nr=0 / decimate=1 / interlaced=0 / bluray_compat=0 / constrained_intra=0 / bframes=3 / b_pyramid=2 / b_adapt=2 / b_bias=0 / direct=3 / weightb=1 / open_gop=0 / weightp=2 / keyint=250 / keyint_min=23 / scenecut=40 / intra_refresh=0 / rc_lookahead=50 / rc=2pass / mbtree=1 / bitrate=8805 / ratetol=1.0 / qcomp=0.60 / qpmin=0 / qpmax=69 / qpstep=4 / cplxblur=20.0 / qblur=0.5 / ip_ratio=1.40 / aq=1:1.00
Default                                  : Yes
Forced                                   : No

Audio
ID                                       : 2
Format                                   : DTS
Format/Info                              : Digital Theater Systems
Mode                                     : 16
Format settings, Endianness              : Big
Codec ID                                 : A_DTS
Duration                                 : 1h 30mn
Bit rate mode                            : Constant
Bit rate                                 : 1 509 Kbps
Channel(s)                               : 6 channels
Channel positions                        : Front: L C R, Side: L R, LFE
Sampling rate                            : 48.0 KHz
Frame rate                               : 93.750 fps (512 spf)
Bit depth                                : 16 bits
Compression mode                         : Lossy
Stream size                              : 982 MiB (15%)
Language                                 : English
Default                                  : Yes
Forced                                   : No





1 個附件 售價 大小 下載 時間

Art.of.Darkness.2012.UNCUT.1080p.BluRay.x264-AMBASSADOR[btbtt.co].torrent 0 金币 66.12K 563 次 4月前

#1樓
請幫忙分享到: | Twitter | Google+ | 微博 | 更多… 发帖時間:2017-01-06 20:29:13   |   回複數:4
blue23
超凡入聖№
感謝樓主分享
4月前 #2樓
liyouchai
超凡入聖№
謝謝樓主分享資源
4月前 #3樓
albb2188
一派掌門
感謝樓主提供分享影片資源!
4月前 #4樓
911degrees
一代宗師
非常感謝,謝謝分享
4月前 #5樓
遊客組