aoloffline
版主

[2012] [日本] [動畫] [BD-1080P] [BT下載]RE:人造人009 009.Re.Cyborg.2012.1080p.BluRay.x264-PFa 5.45GB

-->

◎譯  名 RE:人造人009

◎片  名 009 RE:CYBORG

◎年  代 2012

◎國  家 日本

◎類  別 科幻/動畫

◎語  言 日語

◎上映日期 2012-10-27

◎IMDb评分  6.0/10 from 324 users

◎IMDb链接  http://www.imdb.com/title/tt2078523/

◎豆瓣评分 6.6/10 from 537 users

◎豆瓣鏈接 https://movie.douban.com/subject/6869504/

◎BT之家整理 

◎片  長 103分鍾

◎導  演 神山健治

◎主  演 玉川砂記子

      小野大輔

      齋藤千和

      大川透

      丹澤晃之

      增岡太郎

      吉野裕行

      杉山紀彰

      宮野真守


◎簡  介


  自9·11以来,人类社会在堕落和灭亡的道路上高歌猛进。2013年,莫斯科、伦敦、上海、东京等国际大都会接连发生等级超越9·11的恐怖袭击事件,世界局势危在旦夕。圣火在东京一隅的少年岛村乔(宫野真守 饰),其真实身份是编号为009的人造人,他诞生的初衷便是保护世界和平。如今消除了往昔记忆的他再也无法独善其身,经过一系列的波折,终于和当年的伙伴们001伊凡·维斯基(玉川砂记子 配音)、002杰特·林格(小野大辅 配音)、003法兰索娃·阿尔达努(斋藤千和 配音)、004艾柏特·海因利希(大川透 配音)、005索罗门·索尼亚(丹泽晃之 配音)、006张张胡(增冈太郎 配音)、007葛雷特·布林顿(吉野裕行 配音)会面。拥有超人一般能力的他们,面临前所未有的挑战……

  本片根據漫畫家石之森章太郎的原作改編。


Video
ID                                       : 1
Format                                   : AVC
Format/Info                              : Advanced Video Codec
Format profile                           : [email protected]
Format settings, CABAC                   : Yes
Format settings, ReFrames                : 4 frames
Codec ID                                 : V_MPEG4/ISO/AVC
Duration                                 : 1h 43mn
Bit rate                                 : 5 982 Kbps
Width                                    : 1 920 pixels
Height                                   : 1 080 pixels
Display aspect ratio                     : 16:9
Frame rate mode                          : Constant
Frame rate                               : 23.976 fps
Color space                              : YUV
Chroma subsampling                       : 4:2:0
Bit depth                                : 8 bits
Scan type                                : Progressive
Bits/(Pixel*Frame)                       : 0.120
Stream size                              : 4.34 GiB (80%)
Writing library                          : x264 core 146 r2538 121396c
Encoding settings                        : cabac=1 / ref=4 / deblock=1:0:0 / analyse=0x3:0x133 / me=umh / subme=8 / psy=1 / psy_rd=1.00:0.00 / mixed_ref=1 / me_range=16 / chroma_me=1 / trellis=1 / 8x8dct=1 / cqm=0 / deadzone=21,11 / fast_pskip=0 / chroma_qp_offset=-2 / threads=12 / lookahead_threads=2 / sliced_threads=0 / nr=0 / decimate=1 / interlaced=0 / bluray_compat=0 / constrained_intra=0 / bframes=3 / b_pyramid=2 / b_adapt=1 / b_bias=0 / direct=1 / weightb=1 / open_gop=0 / weightp=2 / keyint=250 / keyint_min=23 / scenecut=40 / intra_refresh=0 / rc_lookahead=40 / rc=2pass / mbtree=1 / bitrate=5982 / ratetol=1.0 / qcomp=0.60 / qpmin=0 / qpmax=69 / qpstep=4 / cplxblur=20.0 / qblur=0.5 / ip_ratio=1.40 / aq=1:1.00
Language                                 : English
Default                                  : Yes
Forced                                   : No

Audio #1
ID                                       : 2
Format                                   : DTS
Format/Info                              : Digital Theater Systems
Mode                                     : 16
Format settings, Endianness              : Big
Codec ID                                 : A_DTS
Duration                                 : 1h 43mn
Bit rate mode                            : Constant
Bit rate                                 : 768 Kbps
Channel(s)                               : 6 channels
Channel positions                        : Front: L C R, Side: L R, LFE
Sampling rate                            : 48.0 KHz
Frame rate                               : 93.750 fps (512 spf)
Bit depth                                : 16 bits
Compression mode                         : Lossy
Stream size                              : 568 MiB (10%)
Default                                  : Yes
Forced                                   : No

Audio #2
ID                                       : 3
Format                                   : DTS
Format/Info                              : Digital Theater Systems
Mode                                     : 16
Format settings, Endianness              : Big
Codec ID                                 : A_DTS
Duration                                 : 1h 43mn
Bit rate mode                            : Constant
Bit rate                                 : 768 Kbps
Channel(s)                               : 6 channels
Channel positions                        : Front: L C R, Side: L R, LFE
Sampling rate                            : 48.0 KHz
Frame rate                               : 93.750 fps (512 spf)
Bit depth                                : 16 bits
Compression mode                         : Lossy
Stream size                              : 568 MiB (10%)
Default                                  : No
Forced                                   : No

Text
ID                                       : 4
Format                                   : UTF-8
Codec ID                                 : S_TEXT/UTF8
Codec ID/Info                            : UTF-8 Plain Text
Duration                                 : 1h 42mn
Bit rate                                 : 42 bps
Count of elements                        : 741
Stream size                              : 31.9 KiB (0%)
Default                                  : Yes
Forced                                   : No





1 個附件 售價 大小 下載 時間

009.Re.Cyborg.2012.1080p.BluRay.x264-PFa[btbtt.co].torrent 0 金币 55.04K 1177 次 1月前

#1樓
发帖時間:2017-01-06 20:25:32   |   回複數:5
blue23
超凡入聖№
感謝樓主分享
1月前 #2樓
liyouchai
超凡入聖№
謝謝樓主分享資源
1月前 #3樓
albb2188
武林高手
感謝樓主提供分享影片資源!
1月前 #4樓
911degrees
一代宗師
非常感謝,謝謝分享
1月前 #5樓
ljs0930
武林高手
小時候看過漫畫書,沒想到這麽多年後。。。
1月前 #6樓
遊客組