小Q呆
版主

[2016] [歐美] [劇情] [BD-1080P] [BT下載]约翰之子 Le.Fils.de.Jean.2016.FRENCH.1080p.BluRay.x264-LOST 6.63GB

-->

◎譯  名 約翰之子

◎片  名 Le fils de Jean

◎年  代 2016

◎國  家 法國/加拿大

◎類  別 劇情

◎語  言 法語

◎上映日期 2016-08-31(法國)

◎IMDb评分  7.3/10 from 193 users

◎IMDb链接  http://www.imdb.com/title/tt4741708/

◎豆瓣评分 7.7/10 from 16 users

◎豆瓣鏈接 https://movie.douban.com/subject/26420626/

◎BT之家整理 

◎片  長 98分鍾

◎导  演 菲利普·里奥雷 Philippe Lioret

◎主  演 皮埃尔·德隆尚 Pierre de Ladonchamps

      加布里埃尔·阿坎德 Gabriel Arcand

      Marie-Thérèse Fortin

      Catherine de Léan

      帕特里克·伊冯 Patrick Hivon

      皮埃尔 - 伊夫·卡迪纳尔 Pierre-Yves Cardinal


◎簡  介


  A divorced Frenchman who lives in Paris with his young son. One day he finds out that his father, who was originally from Quebec and whom he never met, has died. And so he decides to head to Montreal for the funeral and to meet the members of his family on his father’s side, who are totally unaware of his existence.



Complete name : le.fils.de.jean.2016.french.1080p.bluray.x264-lost.mkv
Format : Matroska
Format version : Version 2
File size : 6.56 GiB
Duration : 1 h 38 min
Overall bit rate : 9 570 kb/s
Writing application : mkvmerge v6.6.0 (\'The Edge Of The In Between\') built on Dec 1 2013 17:55:00
Writing library : libebml v1.3.0 + libmatroska v1.4.1

Video
ID : 1
Format : AVC
Format/Info : Advanced Video Codec
Format profile : High@L4.1
Format settings, CABAC : Yes
Format settings, ReFrames : 5 frames
Codec ID : V_MPEG4/ISO/AVC
Duration : 1 h 38 min
Bit rate : 8 062 kb/s
Width : 1 920 pixels
Height : 800 pixels
Display aspect ratio : 2.40:1
Frame rate mode : Constant
Frame rate : 23.976 (24000/1001) FPS
Color space : YUV
Chroma subsampling : 4:2:0
Bit depth : 8 bits
Scan type : Progressive
Bits/(Pixel*Frame) : 0.219
Stream size : 5.39 GiB (82%)
Writing library : x264 core 148 r2744 b97ae06
Encoding settings : cabac=1 / ref=5 / deblock=1:0:0 / analyse=0x3:0x113 / me=umh / subme=8 / psy=1 / psy_rd=1.00:0.00 / mixed_ref=1 / me_range=16 / chroma_me=1 / trellis=1 / 8x8dct=1 / cqm=0 / deadzone=21,11 / fast_pskip=1 / chroma_qp_offset=-2 / threads=18 / lookahead_threads=3 / sliced_threads=0 / nr=0 / decimate=1 / interlaced=0 / bluray_compat=0 / constrained_intra=0 / bframes=3 / b_pyramid=2 / b_adapt=2 / b_bias=0 / direct=3 / weightb=1 / open_gop=0 / weightp=2 / keyint=240 / keyint_min=24 / scenecut=40 / intra_refresh=0 / rc_lookahead=50 / rc=2pass / mbtree=1 / bitrate=8062 / ratetol=1.0 / qcomp=0.60 / qpmin=0 / qpmax=69 / qpstep=4 / cplxblur=20.0 / qblur=0.5 / ip_ratio=1.40 / aq=1:1.00
Language : English
Default : Yes
Forced : No

Audio
ID : 2
Format : DTS
Format/Info : Digital Theater Systems
Mode : 16
Format settings, Endianness : Big
Codec ID : A_DTS
Duration : 1 h 38 min
Bit rate mode : Constant
Bit rate : 1 509 kb/s
Channel(s) : 6 channels
Channel positions : Front: L C R, Side: L R, LFE
Sampling rate : 48.0 kHz
Frame rate : 93.750 FPS (512 spf)
Bit depth : 24 bits
Compression mode : Lossy
Stream size : 1.03 GiB (16%)
Title : French DTS 1509kbps
Language : French
Default : Yes
Forced : No

Menu
00:00:00.000 : en:00:00:00.000
00:08:16.246 : en:00:08:16.246
00:18:03.916 : en:00:18:03.916
00:28:04.725 : en:00:28:04.725
00:37:46.598 : en:00:37:46.598
00:49:10.239 : en:00:49:10.239
00:59:14.426 : en:00:59:14.426
01:10:41.737 : en:01:10:41.737
01:22:11.927 : en:01:22:11.927
01:33:14.047 : en:01:33:14.047

Screens.png

Click Image To View Full Size

eIhAP.th.jpg
Click To View Screenshot
Click To View Screenshot
Click To View Screenshot


1 個附件 售價 大小 下載 時間

Le.Fils.de.Jean.2016.FRENCH.1080p.BluRay.x264-LOST[btbtt.co].torrent 0 金币 9.10K 614 次 1月前

#1樓
发帖時間:2017-01-06 15:09:42   |   回複數:3
liyouchai
一代宗師
謝謝樓主分享資源
1月前 #2樓
911degrees
一代宗師
非常感謝,謝謝分享
1月前 #3樓
blue23
超凡入聖№
感謝樓主分享
1月前 #4樓
遊客組