HELLO小蝦
版主

[2016] [歐美] [恐怖] [BD-720P] [BT下載]死亡占卜2:恶灵始源 Ouija.Origin.of.Evil.2016.720p.BluRay.x264.DTS-HDC 4.84GB

-->

◎譯  名 死亡占蔔2:惡靈始源/碟仙:惡靈始源(台)/死亡占蔔2

◎片  名 Ouija: Origin of Evil

◎年  代 2016

◎國  家 美國

◎類  別 恐怖

◎語  言 英語

◎上映日期 2016-10-21(英國)

◎IMDb评分  6.2/10 from 14,983 users

◎IMDb链接  http://www.imdb.com/title/tt4361050/

◎豆瓣评分 6.0/10 from 1,333 users

◎豆瓣鏈接 https://movie.douban.com/subject/26602794/

◎BT之家整理  

◎片  長 99分鍾

◎导  演 迈克·弗拉纳根 Mike Flanagan

◎主  演 安娜丽丝·巴索 Annalise Basso

      伊莉莎白·里瑟 Elizabeth Reaser

      露露·威尔逊 Lulu Wilson

      亨利·托马斯 Henry Thomas

      帕克·马克 Parker Mack

      道格·琼斯 Doug Jones

      切斯拉·冈萨雷兹 Chelsea Gonzalez

      林肯·梅尔彻 Lincoln Melcher

      尼可拉斯·肯南 Nicholas Keenan

      迈克尔·韦弗 Michael Weaver

      艾利·凯特斯 Ele Keats

      伊芙·戈登 Eve Gordon

      查德·赫弗芬格 Chad Heffelfinger

      妮娜·曼斯克 Nina Mansker

      约翰·普洛斯凯 John Prosky


◎簡  介


  爲了要將召喚來的惡靈送回陰間,這一家人必須去面對他們內心最恐懼的事物,古老的碟仙板將再次召喚出惡靈。


Video
ID                                       : 1
Format                                   : AVC
Format/Info                              : Advanced Video Codec
Format profile                           : [email protected]
Format settings, CABAC                   : Yes
Format settings, ReFrames                : 9 frames
Codec ID                                 : V_MPEG4/ISO/AVC
Duration                                 : 1h 38mn
Bit rate                                 : 5 500 Kbps
Width                                    : 1 280 pixels
Height                                   : 692 pixels
Display aspect ratio                     : 1.85:1
Frame rate mode                          : Constant
Frame rate                               : 23.976 (24000/1001) fps
Color space                              : YUV
Chroma subsampling                       : 4:2:0
Bit depth                                : 8 bits
Scan type                                : Progressive
Bits/(Pixel*Frame)                       : 0.259
Stream size                              : 3.70 GiB (76%)
Writing library                          : x264 core 148 r2665kMod a01e339
Encoding settings                        : cabac=1 / ref=9 / deblock=1:-3:-3 / analyse=0x3:0x133 / me=umh / subme=11 / psy=1 / fade_compensate=0.00 / psy_rd=1.05:0.00 / mixed_ref=1 / me_range=32 / chroma_me=1 / trellis=2 / 8x8dct=1 / cqm=0 / deadzone=21,11 / fast_pskip=0 / chroma_qp_offset=-2 / threads=22 / lookahead_threads=3 / sliced_threads=0 / nr=0 / decimate=0 / interlaced=0 / bluray_compat=0 / constrained_intra=0 / fgo=0 / bframes=8 / b_pyramid=2 / b_adapt=2 / b_bias=0 / direct=3 / weightb=1 / open_gop=0 / weightp=2 / keyint=240 / keyint_min=24 / scenecut=40 / intra_refresh=0 / rc=2pass / mbtree=0 / bitrate=5500 / ratetol=1.0 / qcomp=0.70 / qpmin=0 / qpmax=69 / qpstep=4 / cplxblur=20.0 / qblur=0.5 / ip_ratio=1.20 / pb_ratio=1.20 / aq=3:0.85
Language                                 : English
Default                                  : Yes
Forced                                   : No

Audio
ID                                       : 2
Format                                   : DTS
Format/Info                              : Digital Theater Systems
Mode                                     : 16
Format settings, Endianness              : Big
Codec ID                                 : A_DTS
Duration                                 : 1h 38mn
Bit rate mode                            : Constant
Bit rate                                 : 1 509 Kbps
Channel(s)                               : 6 channels
Channel positions                        : Front: L C R, Side: L R, LFE
Sampling rate                            : 48.0 KHz
Frame rate                               : 93.750 fps (512 spf)
Bit depth                                : 24 bits
Compression mode                         : Lossy
Stream size                              : 1.04 GiB (22%)
Language                                 : English
Default                                  : Yes
Forced                                   : No

Text
ID                                       : 3
Format                                   : UTF-8
Codec ID                                 : S_TEXT/UTF8
Codec ID/Info                            : UTF-8 Plain Text
Language                                 : English
Default                                  : Yes
Forced                                   : No

Menu
00:00:00.000                             : en:00:00:00.000
00:05:30.747                             : en:00:05:30.747
00:09:12.469                             : en:00:09:12.469
00:14:19.525                             : en:00:14:19.525
00:21:37.880                             : en:00:21:37.880
00:25:24.314                             : en:00:25:24.314
00:30:09.850                             : en:00:30:09.850
00:35:53.318                             : en:00:35:53.318
00:39:04.384                             : en:00:39:04.384
00:43:53.464                             : en:00:43:53.464
00:48:49.677                             : en:00:48:49.677
00:55:11.683                             : en:00:55:11.683
00:58:47.607                             : en:00:58:47.607
01:05:27.715                             : en:01:05:27.715
01:10:46.284                             : en:01:10:46.284
01:14:26.420                             : en:01:14:26.420
01:18:25.075                             : en:01:18:25.075
01:21:48.403                             : en:01:21:48.403
01:27:42.841                             : en:01:27:42.841
01:31:03.291                             : en:01:31:03.291





2 個附件 售價 大小 下載 時間

Ouija.Origin.of.Evil.2016.720p.BluRay.x264.DTS-HDC[btbtt.co].torrent 0 金币 97.49K 1568 次 4月前

字幕Ouija.Origin.of.Evil.2016.720p.BluRay.x264.DTS-HDC.rar 0 金币 77.04K 570 次 4月前

#1樓
請幫忙分享到: | Twitter | Google+ | 微博 | 更多… 发帖時間:2017-01-06 10:35:47   |   回複數:4
911degrees
一代宗師
非常感謝,謝謝分享
4月前 #2樓
yangbo83222179
一代宗師
謝謝樓主分享,支持一下
4月前 #3樓
liyouchai
超凡入聖№
謝謝樓主分享資源
4月前 #4樓
blue23
超凡入聖№
感謝樓主分享
4月前 #5樓
遊客組