HELLO小蝦
版主

[2016] [歐美] [懸疑] [BD-1080P] [BT下載]火车上的女孩 The.Girl.on.the.Train.2016.1080p.BluRay.x264.DTS-HDC 11.36GB

-->

◎譯  名 火車上的女孩/列車上的女孩(台)

◎片  名 The Girl on the Train

◎年  代 2016

◎國  家 美國

◎類  別 懸疑/驚悚

◎語  言 英語

◎上映日期 2016-10-07(美國)/2016-10-05(英國)

◎IMDb评分  6.6/10 from 40,883 users

◎IMDb链接  http://www.imdb.com/title/tt3631112/

◎豆瓣评分 6.4/10 from 2,982 users

◎豆瓣鏈接 https://movie.douban.com/subject/26413089/

◎BT之家整理   

◎片  長 112分鍾

◎导  演 泰特·泰勒 Tate Taylor

◎主  演 艾米莉·布朗特 Emily Blunt

      卢克·伊万斯 Luke Evans

      海莉·贝内特 Haley Bennett

      丽贝卡·弗格森 Rebecca Ferguson

      贾斯汀·塞洛克斯 Justin Theroux

      埃德加·拉米雷兹 dgar Ramírez

      艾莉森·珍妮 Allison Janney

      丽莎·库卓 Lisa Kudrow

      达伦·戈德斯坦 Darren Goldstein

      罗斯·吉比 Ross Gibby

      劳拉·普莱潘 Laura Prepon


◎簡  介


  《列車上的女孩》講述一個剛剛離婚、整天酗酒的倫敦女人蕾切爾(Rachel),她每天早上坐火車都會經過一對夫妻的房子,那對夫妻看上去十分完美,直到有一天蕾切爾發現妻子不見了,蕾切爾懷疑她被人害了,于是開始沈迷于對此事的調查。


◎獲獎情況


  第23届美国演员工会奖  (2017)

  電影奖 最佳女主角(提名) 艾米莉·布朗特



Video
ID                                       : 1
Format                                   : AVC
Format/Info                              : Advanced Video Codec
Format profile                           : [email protected]
Format settings, CABAC                   : Yes
Format settings, ReFrames                : 4 frames
Codec ID                                 : V_MPEG4/ISO/AVC
Duration                                 : 1h 52mn
Bit rate                                 : 13.0 Mbps
Width                                    : 1 920 pixels
Height                                   : 1 036 pixels
Display aspect ratio                     : 1.85:1
Frame rate mode                          : Constant
Frame rate                               : 23.976 (24000/1001) fps
Color space                              : YUV
Chroma subsampling                       : 4:2:0
Bit depth                                : 8 bits
Scan type                                : Progressive
Bits/(Pixel*Frame)                       : 0.273
Stream size                              : 9.95 GiB (88%)
Writing library                          : x264 core 148 r2665kMod a01e339
Encoding settings                        : cabac=1 / ref=4 / deblock=1:-3:-3 / analyse=0x3:0x133 / me=umh / subme=11 / psy=1 / fade_compensate=0.00 / psy_rd=0.85:0.00 / mixed_ref=1 / me_range=48 / chroma_me=1 / trellis=2 / 8x8dct=1 / cqm=0 / deadzone=21,11 / fast_pskip=0 / chroma_qp_offset=-2 / threads=24 / lookahead_threads=4 / sliced_threads=0 / nr=0 / decimate=0 / interlaced=0 / bluray_compat=0 / constrained_intra=0 / fgo=0 / bframes=8 / b_pyramid=2 / b_adapt=2 / b_bias=0 / direct=3 / weightb=1 / open_gop=0 / weightp=2 / keyint=240 / keyint_min=24 / scenecut=40 / intra_refresh=0 / rc=2pass / mbtree=0 / bitrate=13000 / ratetol=1.0 / qcomp=0.70 / qpmin=0 / qpmax=69 / qpstep=4 / cplxblur=20.0 / qblur=0.5 / ip_ratio=1.20 / pb_ratio=1.20 / aq=3:0.80
Language                                 : English
Default                                  : Yes
Forced                                   : No

Audio
ID                                       : 2
Format                                   : DTS
Format/Info                              : Digital Theater Systems
Mode                                     : 16
Format settings, Endianness              : Big
Codec ID                                 : A_DTS
Duration                                 : 1h 52mn
Bit rate mode                            : Constant
Bit rate                                 : 1 509 Kbps
Channel(s)                               : 6 channels
Channel positions                        : Front: L C R, Side: L R, LFE
Sampling rate                            : 48.0 KHz
Frame rate                               : 93.750 fps (512 spf)
Bit depth                                : 24 bits
Compression mode                         : Lossy
Stream size                              : 1.18 GiB (10%)
Language                                 : English
Default                                  : Yes
Forced                                   : No

Text
ID                                       : 3
Format                                   : UTF-8
Codec ID                                 : S_TEXT/UTF8
Codec ID/Info                            : UTF-8 Plain Text
Language                                 : English
Default                                  : Yes
Forced                                   : No

Menu
00:00:00.000                             : en:00:00:00.000
00:06:01.778                             : en:00:06:01.778
00:09:29.903                             : en:00:09:29.903
00:18:15.970                             : en:00:18:15.970
00:25:26.150                             : en:00:25:26.150
00:32:04.506                             : en:00:32:04.506
00:37:04.973                             : en:00:37:04.973
00:44:52.315                             : en:00:44:52.315
00:49:22.459                             : en:00:49:22.459
00:55:07.012                             : en:00:55:07.012
00:59:36.031                             : en:00:59:36.031
01:03:34.811                             : en:01:03:34.811
01:09:25.787                             : en:01:09:25.787
01:14:36.430                             : en:01:14:36.430
01:19:08.702                             : en:01:19:08.702
01:23:44.728                             : en:01:23:44.728
01:28:07.491                             : en:01:28:07.491
01:33:49.457                             : en:01:33:49.457
01:38:54.554                             : en:01:38:54.554
01:45:55.182                             : en:01:45:55.182





1 個附件 售價 大小 下載 時間

The.Girl.on.the.Train.2016.1080p.BluRay.x264.DTS-HDC[btbtt.co].torrent 0 金币 57.40K 1934 次 1月前

#1樓
发帖時間:2017-01-06 10:25:09   |   回複數:6
911degrees
一代宗師
非常感謝,謝謝分享
1月前 #2樓
liyouchai
超凡入聖№
謝謝樓主分享資源
1月前 #3樓
blue23
超凡入聖№
感謝樓主分享
1月前 #4樓
kola13
武林高手
感謝分享
1月前 #5樓
tanchoohoon
一派掌門
感謝樓主的無私分享
1月前 #6樓
sugarbabybobo
武林高手
謝謝發片
1月前 #7樓
遊客組