aoloffline
版主

[2016] [歐美] [驚悚] [HDTV/HDrip] [BT下載]天赐之女 The.Girl.With.All.The.Gifts.2016.1080p.HDRip.x264.AAC2.0-SHI 3.48GB

-->

◎譯  名 天賜之女

◎片  名 The Girl with All the Gifts

◎年  代 2016

◎國  家 英國/美國

◎類  別 劇情/驚悚/恐怖

◎語  言 英語

◎上映日期 2016-09-23(英國)

◎IMDb评分  7.1/10 from 4,525 users

◎IMDb链接  http://www.imdb.com/title/tt4547056/

◎豆瓣评分 5.8/10 from 41 users

◎豆瓣鏈接 https://movie.douban.com/subject/26704623/

◎BT之家整理  

◎片  長 110分鍾

◎导  演 柯尔姆·麦卡锡 Colm McCarthy

◎主  演 杰玛·阿特登 Gemma Arterton

      格伦·克洛斯 Glenn Close

      帕迪·康斯戴恩 Paddy Considine

      多米尼克·蒂珀 Dominique Tipper

      安娜玛丽亚·玛琳卡 Anamaria Marinca

      飞塞友·阿金那德 Fisayo Akinade

      森尼娅·纳阿 Sennia Nanua


◎簡  介


  《天赐之女》是一部電影,片长110分钟。根据M·R·凯里的爱伦坡奖获奖小说改编的僵尸启示录電影,背景设定在反乌托邦未来,讲述一位科学家,一位老师和两名士兵利用一个第二代僵尸女孩,研究治疗僵尸的方法,以拯救人类。


◎獲獎情況


  第19届英国独立電影奖  (2016)

  最佳女配角(提名) 杰玛·阿特登

  最佳新演员(提名) 森尼娅·纳阿

  技術成就獎(提名)

  制作成就獎


Video
ID                                       : 1
Format                                   : AVC
Format/Info                              : Advanced Video Codec
Format profile                           : [email protected]
Format settings, CABAC                   : Yes
Format settings, ReFrames                : 4 frames
Codec ID                                 : avc1
Codec ID/Info                            : Advanced Video Coding
Duration                                 : 1h 46mn
Bit rate                                 : 4 500 Kbps
Width                                    : 1 920 pixels
Height                                   : 956 pixels
Display aspect ratio                     : 2.008
Frame rate mode                          : Constant
Frame rate                               : 25.000 fps
Color space                              : YUV
Chroma subsampling                       : 4:2:0
Bit depth                                : 8 bits
Scan type                                : Progressive
Bits/(Pixel*Frame)                       : 0.098
Stream size                              : 3.31 GiB (95%)
Title                                    : The.Girl.With.All.The.Gifts.2016.1080p.HDRip.x264.AAC2.0-SHITBOX
Writing library                          : x264 core 148 r2597M e86f3a1
Encoding settings                        : cabac=1 / ref=4 / deblock=1:0:0 / analyse=0x3:0x113 / me=umh / subme=8 / psy=1 / psy_rd=1.00:0.00 / mixed_ref=1 / me_range=16 / chroma_me=1 / trellis=1 / 8x8dct=1 / cqm=0 / deadzone=21,11 / fast_pskip=1 / chroma_qp_offset=-2 / threads=40 / lookahead_threads=6 / sliced_threads=0 / nr=0 / decimate=1 / interlaced=0 / bluray_compat=0 / constrained_intra=0 / bframes=3 / b_pyramid=2 / b_adapt=2 / b_bias=0 / direct=3 / weightb=1 / open_gop=0 / weightp=2 / keyint=250 / keyint_min=25 / scenecut=40 / intra_refresh=0 / rc_lookahead=50 / rc=abr / mbtree=1 / bitrate=4500 / ratetol=1.0 / qcomp=0.60 / qpmin=0 / qpmax=69 / qpstep=4 / ip_ratio=1.40 / aq=1:1.00

Audio
ID                                       : 2
Format                                   : AAC
Format/Info                              : Advanced Audio Codec
Format profile                           : LC
Codec ID                                 : 40
Duration                                 : 1h 46mn
Bit rate mode                            : Constant
Bit rate                                 : 224 Kbps
Channel(s)                               : 2 channels
Channel positions                        : Front: L R
Sampling rate                            : 48.0 KHz
Frame rate                               : 46.875 fps (1024 spf)
Compression mode                         : Lossy
Stream size                              : 170 MiB (5%)
Title                                    : The.Girl.With.All.The.Gifts.2016.1080p.HDRip.x264.AAC2.0-SHITBOX
Default                                  : Yes
Alternate group                          : 1





1 個附件 售價 大小 下載 時間

The.Girl.With.All.The.Gifts.2016.1080p.HDRip.x264.AAC2.0-SHITBOX.torrent 0 金币 70.27K 1212 次 4月前

#1樓
請幫忙分享到: | Twitter | Google+ | 微博 | 更多… 发帖時間:2017-01-06 10:07:26   |   回複數:3
911degrees
一代宗師
非常感謝,謝謝分享
4月前 #2樓
liyouchai
超凡入聖№
謝謝樓主分享資源
4月前 #3樓
blue23
超凡入聖№
感謝樓主分享
4月前 #4樓
遊客組