aoloffline
版主

[2016] [歐美] [驚悚] [WEB-1080P] [BT下載]元素/催眠专家 Element.2016.1080p.HC.WEBRip.x264.AAC2.0-STU 2.7GB

-->

國內中文大字幕版

◎譯  名 元素/催眠專家

◎片  名 Element

◎年  代 2016

◎國  家 美國

◎類  別 驚悚

◎語  言 英語

◎上映日期 2016-04-01

◎IMDb评分  4.5/10 from 97 users

◎IMDb链接  http://www.imdb.com/title/tt3645178/

◎BT之家整理   

◎片  長 88分鍾

◎导  演 强·基耶斯 Jon Keeyes

◎主  演 迈克尔·艾恩塞德 Michael Ironside

      史蒂芬·迈克尔·克扎达 Steven Michael Quezada

      Paul Stuart

      Mollie Milligan

      Angeline-Rose Troy

      维琳达·戈弗雷 Velinda Godfrey

      Susana Gibb

      Nikki Donley

      Leland Prater


◎簡  介


  一名金融顧問難以從妻子死亡的陰影中走出來,他打算通過催眠來想起更多和妻子的回憶。


Video
ID                                       : 1
Format                                   : AVC
Format/Info                              : Advanced Video Codec
Format profile                           : [email protected]
Format settings, CABAC                   : Yes
Format settings, ReFrames                : 4 frames
Codec ID                                 : avc1
Codec ID/Info                            : Advanced Video Coding
Duration                                 : 1h 24mn
Bit rate                                 : 4 500 Kbps
Width                                    : 1 920 pixels
Height                                   : 812 pixels
Display aspect ratio                     : 2.35:1
Frame rate mode                          : Constant
Frame rate                               : 25.000 fps
Color space                              : YUV
Chroma subsampling                       : 4:2:0
Bit depth                                : 8 bits
Scan type                                : Progressive
Bits/(Pixel*Frame)                       : 0.115
Stream size                              : 2.60 GiB (95%)
Title                                    : Element.2016.1080p.HC.WEBRip.x264.AAC2.0-STUTTERSHIT
Writing library                          : x264 core 148 r2694 3b70645
Encoding settings                        : cabac=1 / ref=4 / deblock=1:0:0 / analyse=0x3:0x113 / me=umh / subme=8 / psy=1 / psy_rd=1.00:0.00 / mixed_ref=1 / me_range=16 / chroma_me=1 / trellis=1 / 8x8dct=1 / cqm=0 / deadzone=21,11 / fast_pskip=1 / chroma_qp_offset=-2 / threads=40 / lookahead_threads=6 / sliced_threads=0 / nr=0 / decimate=1 / interlaced=0 / bluray_compat=0 / constrained_intra=0 / bframes=3 / b_pyramid=2 / b_adapt=2 / b_bias=0 / direct=3 / weightb=1 / open_gop=0 / weightp=2 / keyint=250 / keyint_min=25 / scenecut=40 / intra_refresh=0 / rc_lookahead=50 / rc=abr / mbtree=1 / bitrate=4500 / ratetol=1.0 / qcomp=0.60 / qpmin=0 / qpmax=69 / qpstep=4 / ip_ratio=1.40 / aq=1:1.00

Audio
ID                                       : 2
Format                                   : AAC
Format/Info                              : Advanced Audio Codec
Format profile                           : LC
Codec ID                                 : 40
Duration                                 : 1h 24mn
Bit rate mode                            : Constant
Bit rate                                 : 224 Kbps
Channel(s)                               : 2 channels
Channel positions                        : Front: L R
Sampling rate                            : 48.0 KHz
Frame rate                               : 46.875 fps (1024 spf)
Compression mode                         : Lossy
Stream size                              : 135 MiB (5%)
Title                                    : Element.2016.1080p.HC.WEBRip.x264.AAC2.0-STUTTERSHIT
Default                                  : Yes
Alternate group                          : 1





1 個附件 售價 大小 下載 時間

Element.2016.1080p.HC.WEBRip.x264.AAC2.0-STUTTERSHIT[btbtt.co].torrent 0 金币 55.29K 1320 次 17天前

#1樓
发帖時間:2017-01-05 19:02:25   |   回複數:4
4dcgdemo
江湖小蝦
詭屋驚凶實錄2
17天前 #2樓
liyouchai
一代宗師
謝謝樓主分享資源
17天前 #3樓
blue23
超凡入聖№
感謝樓主分享
17天前 #4樓
911degrees
一代宗師
非常感謝,謝謝分享
16天前 #5樓
遊客組