屌絲葫蘆娃
江湖小蝦

[2011] [歐美] [奇幻] [BDRRip-720P] [BT下載][野獸男孩]Beastly.2011.BluRay.720p.AC3.x264-CnSCG[中英字幕/2.20G]

-->






【影片原名】Beastly
【中文譯名】野獸男孩/美女與野獸-新世紀激情篇(港)/野獸情人(台)
【出品公司】CBS Films
【出品年代】2011 年
【上映日期】2011年3月4日 美国
【影片级别】USAG-13 (certificate #45936) | MalaysiaG-13 | CanadaG (Ontario) | UK:12A | Canada:G (Quebec)
【官方網站】http://www.beastlythemovie.com/
【IMDB网址 】http://www.imdb.com/title/tt1152398/
【IMDB评分】4.8/10 (4,169 votes)
【國  家】美國
【類  別】劇情/奇幻/愛情
【导  演】丹尼尔·巴尔兹 Daniel Barnz
【主  演】亚历克斯·帕蒂弗 Alex Pettyfer  ....Kyle
      瓦妮莎·哈金斯 Vanessa Hudgens  ....Lindy
      Justin Bradley  ....Student
      达科塔·约翰逊 Dakota Johnson  ....Sloan
      埃里克·克诺德森 Erik Knudsen  ....Trey
      Karl Graboshas  ....Male Teacher
      彼得·克劳斯 Peter Krause  ....Rob
      丽莎·盖伊·汉密尔顿 Lisa Gay Hamilton  ....Zola
      Jonathan Dubsky  ....Student at Green Party
      David Francis  ....Dr. Davis
      尼尔·帕特里克·哈里斯 Neil Patrick Harris  ....Will
      Rhiannon Moller-Trotter  ....Halloween Partygoer
      Steve Godin  ....Junkie
      Gio Perez  ....Victor
      Roc LaFortune  ....Lindy's Father


【內容簡介】

  十七歲的凱爾是一個被富足家庭寵壞的孩子,他既自私又自大,既膚淺又愚昧。不過,這個又有錢又帥氣的小夥子卻在自己的學校裏非常受歡迎。尤其是得到那些所謂"外貌協會"的女孩子的歡迎。而凱爾也十分清楚自己的優勢,所以他一個勁地在自己的外表上做文章。

  心高氣傲,而且喜歡用外表評價他人的凱爾終于遭到了報應。在他惡狠狠地嘲弄了同校的肯德拉之後,他被肯德拉詛咒了。原來,肯德拉不是一個平常人,她是一個僞裝成高中生的女巫,爲了讓凱爾記住永遠不能用外表去評價人,她施展法術,把凱爾的內心展示在了外表之上。也就是說,凱爾變成了一個異型的醜八怪。肯德拉給了凱爾一年時間去尋找真愛,那種能不以外表評價他人、並且真心愛他的女孩。如果能找到這樣的真愛,凱爾還有機會做回自己;如果在一年之內毫無所獲,那麽凱爾只能永遠做"野獸男孩"了。

  現在,凱爾唯一的機會就是同班級裏的林迪。這是一個天真、可愛而且善良的女孩。但是凱爾在這之前一直沒有注意過相貌平平的她。凱爾有機會在一年時間裏讓林迪愛上自己麽他能證明,愛情永遠不醜陋這個簡單、樸素的真理麽

一句話評論

  这部電影不但摧毁了原著故事的美好之处,而且每个在故事上有所创新的点都是大错特错。 ——《好莱坞报道》

幕後制作

  現代版的《美女與野獸》

  2007年,阿莱克丝·弗林创作了一本叫做《野兽男孩》的超自然小说。小说的主要情节来源于传统的童话故事《美女与野兽》。同年12月,CBS Film便相中了这本流行读物,买下了小说的拍摄版权。2009年2月,CBS Film的主席兼CEO艾米·拜尔宣布这部電影将由丹尼尔·巴尔兹改编剧本并指导。于是,影片成为了CBS Film制作的第一批长片之一。艾米·拜尔在谈到为什么要找只拍摄过一部電影的丹尼尔·巴尔兹指导影片时说:“巴尔兹独有的影片视觉效果上的特征,让他成为了他这一代导演中的杰出者。能与他合作,令我们倍感兴奋。因为他在这个普通的故事中自明其声,将一种独到的、不一样的感觉带入了故事之中。让这个原本有些涣散的故事变得感人而动情。”

  而对丹尼尔·巴尔兹来说,执导这部影片需要他在视觉效果上做的比他的处女作《菲比梦游奇境》更为出色。因为前作是一部讲述小女孩在梦中所见所闻的影片,所以无论如何幻想,都可以自圆其说。但是《野兽男孩》却是一部发生在现实生活中的带有超现实色彩的故事,要在这样的影片中安插入太多的“幻想”画面,显然不太符合情理。谈及影片的风格,丹尼尔·巴尔兹说:“很自然的、也是出于商业上的考虑,我决定用一种高度风格化的样子来拍摄影片。这个故事很时髦也很前卫,它从自己的角度讲述了一个关于外表美和心灵美的故事。如果要在電影中简简单单地把外表和心灵对立起来。肯定不是什么好主意,因为给十几岁的青少年拍摄的影片一定要重视视觉效果。因为小说设置的情节是一个男孩变丑了,是因为他的心灵不美。所以,一定要设计出一个看上去既令人毛骨悚然,但是又颇有个性的‘野兽’形象。”

  那么,如果才能把这个流传了许久,有众多版本的《美女与野兽》拍摄得更为“符合民意”呢丹尼尔·巴尔兹表示说,自己从影片《情到深处》中偷师不少。他说:“在改编剧本的时候,我的确受到了当年我看的那部《情到深处》的影响。那部電影从始至终带有原始性的、动人的情感让它成为了我对我的青少年时期的记忆。它让我明白,青少年爱情電影的拍摄方法和需要呈现出的质感。所以,我也希望自己能在《野兽男孩》中,表现出那种十几岁的质朴和动容的感觉。当我拿到小说,我就回到了青少年时期,回忆起了《情到深处》。这部電影让我有机会用十几岁的情绪讲述一个古老的童话故事,我很喜欢这个混搭的影片。”在丹尼尔·巴尔兹改编的剧本中,故事的视角被移植到了野兽的身上,这种视角让我们更加能了解到一个人的心灵是如何转变的。

  “野獸男孩”的外貌

  在以往的版本的《美女與野獸》中,野獸就是一個怪物,是一個混雜了多種猛獸外貌、穿著獸皮的怪物。在小說原作中,野獸男孩長著獠牙、身上也長出了獸毛。可是在這部影片中,野獸男孩所呈現出來的外貌卻不是這樣,看起來,他更像是一個加了紋身和傷疤的“潮男”。爲什麽要做這麽大的改編丹尼爾·巴爾茲是說:“我希望給影片帶來一點時尚、流行的感覺。因爲這不是一部恐怖片,所以沒有必要把主角搞得像是鬼怪一樣。”對于這種時髦的外表,野獸男孩的扮演者,來自英倫的90後演員亞曆克斯·帕蒂弗說:“當我聽說我不用穿獸皮的衣服,不用在臉上貼毛的時候,我覺得很爽。因爲如果那樣化妝,實在是太痛苦了。實際上,觀衆也不會喜歡一只怪獸在高中生中尋找真愛的。應該說我現在的化妝真的很贊,因爲它最終呈現出的是一種非常時髦、也有些令人害怕的效果。在其他的影片中,你肯定沒有見過--甚至連類似的都麽沒有。”

  不过,要把这种外观移植到亚历克斯·帕蒂弗的脸上和身上却是一件艰苦的事情。工作人员要在帕蒂弗的脸上做上7个疤痕,在他身上做上60个疤痕。其他的还有60个纹身以及一些细小的独立的化妆。除此之外,帕蒂弗还带上了隐形眼镜,因为電影要求他需要改变自己瞳孔的颜色。整个化妆的流程要花上7个小时,在这期间,帕蒂弗不能洗脸,不能乱动,因为每次化妆都要和上次保持一致,否则的话,观众就能看出破绽。除了这些“硬化妆”之外,还有很多后期电脑特效做上去的“软化妆”。比如会动的纹身,还有那些看上去好像有血液在流动的鼓起的静脉。最终的化妆效果,女主角瓦妮莎·哈金斯用了“奇特”两个字形容,她说:“看上去很疯狂,很奇特,也很令人恐惧”。

  對于自己的“新外表”,亞曆克斯·帕蒂弗說:“要扮演這個角色,我必須剃光頭。在剃光頭前後,我的心境是不一樣的,就好像影片中凱爾在變身怪獸前後的心境。外貌上的這個變化幫助我更好地揣摩塑造人物。這個外貌讓我明白,我在銀幕上演的實際上是另一個凱爾,那個隱藏在他俊朗外表下的家夥。當然,在片場,所有人都在圍繞我打轉,給我化妝的、補妝的,做後期的。幾乎整個劇組都在爲我服務,這讓我感覺到壓力很大。不過導演卻總是鼓勵我說,要我放輕松,要我別去想那些與角色不相幹的事情。我覺得我在影片中做的還不錯。”

花絮

  ·影片改編自阿萊克絲·弗林創作于2007年的同名小說。

  ·影片原計劃于2010年7月30日上映,但爲了避免與紮克·埃夫隆的《查理的生與死》正面沖突,所以制片方把影片推遲到2011年春季上映。

  ·本片是CBS Film制作的第一批长片之一。

  ·影片的制作成本和宣傳成本一共只有2000萬美元。

  ·影片2009年6月13日開始拍攝,外景地包括了蒙特利爾和魁北克。

  ·影片第一部預告片在芝加哥拍攝,其中出現的高中是沃爾·特佩頓大學預科高中。

  ·影片只用了45天便拍攝完畢。

  ·2009年6月12日,就在影片開始拍攝的前一天,魁北克政府突然宣布稅收改革,要提高影片的稅率。而《野獸男孩》恰巧就是在此政策公布前決定要在魁北克拍攝影的影片。

  ·瑞典的独立乐队Marching Band为影片演唱了几首歌。

  ·劇組在魁北克雇用了300多個當地的普通居民作爲群衆演員。

  ·劇組在確定男主角人選的時候有一個要求,那就是男主角必須和《暮色》中的羅伯特·帕丁森風格相似。

  ·为了给影片做宣传,为了拓展影片市场,CBS Film宣布将会发行影片中的服装和道具,并为之开发游戏。

E:\SCG工作\野獸男孩Beastly.2011.BluRay.720p.AC3.x264-CnSCG\野獸男孩Beastly.2011.BluRay.720p.AC3.x264-CnSCG.mkv
  General
    Complete name : E:\SCG工作\野獸男孩Beastly.2011.BluRay.720p.AC3.x264-CnSCG\野獸男孩Beastly.2011.BluRay.720p.AC3.x264-CnSCG.mkv
    Format : Matroska
    File size : 2.20 GiB
    Duration : 1h 26mn
    Overall bit rate : 3 658 Kbps
    Encoded date : UTC 2011-06-16 12:03:28
    Writing application : mkvmerge v2.9.7 ('Tenderness') built on Jul  1 2009 18:43:35
    Writing library : libebml v0.7.7 + libmatroska v0.8.1
  Video #1
    ID : 1
    Format : AVC
    Format/Info : Advanced Video Codec
    Format profile : [email protected]
    Format settings, CABAC : Yes
    Format settings, ReFrames : 6 frames
    Muxing mode : Container [email protected]
    Codec ID : V_MPEG4/ISO/AVC
    Duration : 1h 26mn
    Bit rate : 3 137 Kbps
    Nominal bit rate : 3 209 Kbps
    Width : 1 280 pixels
    Height : 720 pixels
    Display aspect ratio : 16:9
    Frame rate : 23.976 fps
    Resolution : 8 bits
    Colorimetry : 4:2:0
    Scan type : Progressive
    Bits/(Pixel*Frame) : 0.142
    Stream size : 1.89 GiB (86%)
    Writing library : x264 core 114 r1924 08d04a4
    Encoding settings : cabac=1 / ref=6 / deblock=1:-3:-2 / analyse=0x3:0x133 / me=umh / subme=8 / psy=1 / psy_rd=1.00:0.10 / mixed_ref=1 / me_range=24 / chroma_me=1 / trellis=2 / 8x8dct=1 / cqm=0 / deadzone=21,11 / fast_pskip=0 / chroma_qp_offset=-2 / threads=6 / sliced_threads=0 / nr=0 / decimate=0 / interlaced=0 / constrained_intra=0 / bframes=4 / b_pyramid=2 / b_adapt=2 / b_bias=0 / direct=1 / weightb=1 / open_gop=0 / weightp=2 / keyint=250 / keyint_min=23 / scenecut=40 / intra_refresh=0 / rc_lookahead=40 / rc=2pass / mbtree=1 / bitrate=3209 / ratetol=1.0 / qcomp=0.60 / qpmin=10 / qpmax=51 / qpstep=4 / cplxblur=20.0 / qblur=0.5 / ip_ratio=1.40 / aq=1:1.00
    Language : English
  Audio #2
    ID : 2
    Format : AC-3
    Format/Info : Audio Coding 3
    Codec ID : A_AC3
    Duration : 1h 26mn
    Bit rate mode : Constant
    Bit rate : 448 Kbps
    Channel(s) : 6 channels
    Channel positions : Front: L C R, Surround: L R, LFE
    Sampling rate : 48.0 KHz
    Stream size : 276 MiB (12%)
  Text #3
    ID : 3
    Format : SSA
    Codec ID : S_TEXT/SSA
    Codec ID/Info : Sub Station Alpha
    Title : 中英字幕
  Text #4
    ID : 4
    Format : SSA
    Codec ID : S_TEXT/SSA
    Codec ID/Info : Sub Station Alpha
    Title : 英中字幕
  Text #5
    ID : 5
    Format : UTF-8
    Codec ID : S_TEXT/UTF8
    Codec ID/Info : UTF-8 Plain Text
    Title : 中文字幕
  Text #6
    ID : 6
    Format : UTF-8
    Codec ID : S_TEXT/UTF8
    Codec ID/Info : UTF-8 Plain Text
    Title : 英文字幕


1 個附件 售價 大小 下載 時間

野獸男孩Beastly.2011.BluRay.720p.AC3.x264-CnSCG.torrent 0 金币 91.07K 542 次 17天前

#1樓
发帖時間:2017-01-05 18:47:07   |   回複數:4
liyouchai
一代宗師
謝謝樓主分享資源
17天前 #2樓
blue23
超凡入聖№
感謝樓主分享
17天前 #3樓
albb2188
武林高手
感謝樓主提供分享影片資源!
17天前 #4樓
911degrees
一代宗師
非常感謝,謝謝分享
16天前 #5樓
遊客組