aoloffline
版主

[2016] [歐美] [災難] [Remux] [BT下載]深海浩劫 Deepwater.Horizon.2016.1080p.BluRay.REMUX.AVC.DTS-HD.MA-FGT 26GB

-->

◎譯  名 深海浩劫/深水地平線/怒火地平線(台)

◎片  名 Deepwater Horizon

◎年  代 2016

◎國  家 美國/香港

◎類  別 劇情/冒險/災難

◎語  言 英語

◎上映日期 2016-09-30(美國)/2016-11-15(中國大陸)

◎IMDb评分  7.3/10 from 33,296 users

◎IMDb链接  http://www.imdb.com/title/tt1860357/

◎豆瓣评分 7.1/10 from 13,970 users

◎豆瓣鏈接 https://movie.douban.com/subject/22266320/

◎BT之家整理   

◎片  長 108分鍾

◎导  演 彼得·博格 Peter Berg

◎主  演 马克·沃尔伯格 Mark Wahlberg

      迪伦·欧布莱恩 Dylan O'Brien

      约翰·马尔科维奇 John Malkovich

      库尔特·拉塞尔 Kurt Russell

      吉娜·罗德里格兹 Gina Rodriguez

      凯特·哈德森 Kate Hudson

      J.D·埃弗摩尔 J.D. Evermore

      乔·克里斯特 Joe Chrest

      约翰·阿米乔 John L. Armijo

      布拉德·利兰 Brad Leland

      道格拉斯·M·格里芬 Douglas M. Griffin

      克里斯·阿斯沃思 Chris Ashworth


◎簡  介


  本片改编自真实事件,讲述一队石油工人在面临有史以来最严重的人为灾难时,以无上的勇气和坚定的意志,与灾难搏斗奋力自救的故事。离岸40英里以外,广阔的墨西哥湾洋面上矗立着世界顶尖的海上钻井平台——“深水地平线”。平台副经理麦克·威廉姆斯(马克·沃尔伯格饰演)带领自己的团队即将完成一次破纪录深度的钻井作业。不料突发井压不稳和压冲导致紧急安全系统失灵,随即引发连环爆炸,深海原油冲破井盖喷涌出来,形成数十米高的油柱,冲天大火随之而来。数百万吨原 油倾泻而出,整个钻井平台及附近的海平面都被遮天浓烟和熊熊大火包围,变成人间炼狱,126名钻井工人被困其中。因火势太大,海上救援队伍无法靠近。麦克带领几名勇敢的同伴,展开自救行动。他们搜救伤者、安排撤离,坚守到最后一刻。钻井平台即将沉没,麦克和他的同伴必须在水深火热之中逃出生天。


◎獲獎情況


  第44届动画安妮奖  (2017)

  最佳真人電影动画效果(提名)


Video
ID                                       : 1
Format                                   : AVC
Format/Info                              : Advanced Video Codec
Format profile                           : High@L4.1
Format settings, CABAC                   : Yes
Format settings, ReFrames                : 4 frames
Codec ID                                 : V_MPEG4/ISO/AVC
Duration                                 : 1h 47mn
Bit rate mode                            : Variable
Maximum bit rate                         : 36.4 Mbps
Width                                    : 1 920 pixels
Height                                   : 1 080 pixels
Display aspect ratio                     : 16:9
Frame rate mode                          : Constant
Frame rate                               : 23.976 (24000/1001) fps
Color space                              : YUV
Chroma subsampling                       : 4:2:0
Bit depth                                : 8 bits
Scan type                                : Progressive
Title                                    : Deepwater.Horizon.2016.1080p.BluRay.REMUX.AVC.DTS-HD.MA.TrueHD.7.1.Atmos-FGT
Language                                 : English
Default                                  : No
Forced                                   : No

Audio #1
ID                                       : 2
Format                                   : DTS
Format/Info                              : Digital Theater Systems
Format profile                           : MA / Core
Mode                                     : 16
Format settings, Endianness              : Big
Codec ID                                 : A_DTS
Duration                                 : 1h 47mn
Bit rate mode                            : Variable / Constant
Bit rate                                 : Unknown / 1 509 Kbps
Channel(s)                               : 8 channels / 6 channels
Channel positions                        : Front: L C R, Side: L R, Back: L R, LFE / Front: L C R, Side: L R, LFE
Sampling rate                            : 48.0 KHz
Frame rate                               : 93.750 fps (512 spf)
Bit depth                                : 24 bits
Compression mode                         : Lossless / Lossy
Title                                    : Deepwater.Horizon.2016.1080p.BluRay.REMUX.AVC.DTS-HD.MA.TrueHD.7.1.Atmos-FGT
Language                                 : English
Default                                  : Yes
Forced                                   : No

Audio #2
ID                                       : 3
Format                                   : Atmos / TrueHD
Codec ID                                 : A_TRUEHD
Bit rate mode                            : Variable
Maximum bit rate                         : 6 759 Kbps
Channel(s)                               : Object Based / 8 channels
Channel positions                        : Object Based / Front: L C R, Side: L R, Back: L R, LFE
Sampling rate                            :  / 48.0 KHz
Frame rate                               : 1 200.000 fps (40 spf)
Compression mode                         : Lossless
Title                                    : Deepwater.Horizon.2016.1080p.BluRay.REMUX.AVC.DTS-HD.MA.TrueHD.7.1.Atmos-FGT
Language                                 : English
Default                                  : No
Forced                                   : No

Audio #3
ID                                       : 4
Format                                   : AC-3
Format/Info                              : Audio Coding 3
Mode extension                           : CM (complete main)
Format settings, Endianness              : Big
Codec ID                                 : A_AC3
Duration                                 : 1h 47mn
Bit rate mode                            : Constant
Bit rate                                 : 640 Kbps
Channel(s)                               : 6 channels
Channel positions                        : Front: L C R, Side: L R, LFE
Sampling rate                            : 48.0 KHz
Frame rate                               : 31.250 fps (1536 spf)
Compression mode                         : Lossy
Stream size                              : 491 MiB (2%)
Title                                    : Deepwater.Horizon.2016.1080p.BluRay.REMUX.AVC.DTS-HD.MA.TrueHD.7.1.Atmos-FGT
Language                                 : English
Default                                  : No
Forced                                   : No

Audio #4
ID                                       : 5
Format                                   : AC-3
Format/Info                              : Audio Coding 3
Mode extension                           : CM (complete main)
Format settings, Endianness              : Big
Codec ID                                 : A_AC3
Duration                                 : 1h 47mn
Bit rate mode                            : Constant
Bit rate                                 : 640 Kbps
Channel(s)                               : 6 channels
Channel positions                        : Front: L C R, Side: L R, LFE
Sampling rate                            : 48.0 KHz
Frame rate                               : 31.250 fps (1536 spf)
Compression mode                         : Lossy
Stream size                              : 491 MiB (2%)
Title                                    : Deepwater.Horizon.2016.1080p.BluRay.REMUX.AVC.DTS-HD.MA.TrueHD.7.1.Atmos-FGT
Language                                 : Spanish
Default                                  : No
Forced                                   : No

Audio #5
ID                                       : 6
Format                                   : AC-3
Format/Info                              : Audio Coding 3
Format profile                           : Dolby Digital
Mode extension                           : CM (complete main)
Format settings, Endianness              : Big
Codec ID                                 : A_AC3
Duration                                 : 1h 47mn
Bit rate mode                            : Constant
Bit rate                                 : 224 Kbps
Channel(s)                               : 2 channels
Channel positions                        : Front: L R
Sampling rate                            : 48.0 KHz
Frame rate                               : 31.250 fps (1536 spf)
Compression mode                         : Lossy
Stream size                              : 172 MiB (1%)
Title                                    : Deepwater.Horizon.2016.1080p.BluRay.REMUX.AVC.DTS-HD.MA.TrueHD.7.1.Atmos-FGT
Language                                 : English
Default                                  : No
Forced                                   : No

Audio #6
ID                                       : 7
Format                                   : AC-3
Format/Info                              : Audio Coding 3
Format profile                           : Dolby Digital
Mode extension                           : CM (complete main)
Format settings, Endianness              : Big
Codec ID                                 : A_AC3
Duration                                 : 1h 47mn
Bit rate mode                            : Constant
Bit rate                                 : 224 Kbps
Channel(s)                               : 2 channels
Channel positions                        : Front: L R
Sampling rate                            : 48.0 KHz
Frame rate                               : 31.250 fps (1536 spf)
Compression mode                         : Lossy
Stream size                              : 172 MiB (1%)
Title                                    : Deepwater.Horizon.2016.1080p.BluRay.REMUX.AVC.DTS-HD.MA.TrueHD.7.1.Atmos-FGT
Language                                 : English
Default                                  : No
Forced                                   : No

Text #1
ID                                       : 8
Format                                   : PGS
Muxing mode                              : zlib
Codec ID                                 : S_HDMV/PGS
Codec ID/Info                            : Picture based subtitle format used on BDs/HD-DVDs
Title                                    : English-PGS
Language                                 : English
Default                                  : Yes
Forced                                   : No

Text #2
ID                                       : 9
Format                                   : PGS
Muxing mode                              : zlib
Codec ID                                 : S_HDMV/PGS
Codec ID/Info                            : Picture based subtitle format used on BDs/HD-DVDs
Title                                    : English-SDH-PGS
Language                                 : English
Default                                  : No
Forced                                   : No

Text #3
ID                                       : 10
Format                                   : PGS
Muxing mode                              : zlib
Codec ID                                 : S_HDMV/PGS
Codec ID/Info                            : Picture based subtitle format used on BDs/HD-DVDs
Title                                    : Spanish-PGS
Language                                 : Spanish
Default                                  : No
Forced                                   : No

Text #4
ID                                       : 11
Format                                   : PGS
Muxing mode                              : zlib
Codec ID                                 : S_HDMV/PGS
Codec ID/Info                            : Picture based subtitle format used on BDs/HD-DVDs
Title                                    : Spanish-FORCED-PGS
Language                                 : Spanish
Default                                  : No
Forced                                   : No

Menu
00:00:00.000                             : en:Chapter 01
00:07:01.212                             : en:Chapter 02
00:12:32.626                             : en:Chapter 03
00:19:34.464                             : en:Chapter 04
00:27:17.218                             : en:Chapter 05
00:34:52.632                             : en:Chapter 06
00:44:29.833                             : en:Chapter 07
00:48:04.923                             : en:Chapter 08
00:53:47.599                             : en:Chapter 09
00:58:05.148                             : en:Chapter 10
01:05:44.607                             : en:Chapter 11
01:10:06.869                             : en:Chapter 12
01:16:02.933                             : en:Chapter 13
01:20:44.381                             : en:Chapter 14
01:27:37.669                             : en:Chapter 15
01:31:37.825                             : en:Chapter 16






1 個附件 售價 大小 下載 時間

Deepwater.Horizon.2016.1080p.BluRay.REMUX.AVC.DTS-HD.MA.TrueHD.7.1.Atmos-FGT[btbtt.co].torrent 0 金币 68.04K 8110 次 1月前

#1樓
发帖時間:2017-01-01 23:57:21   |   回複數:5
GNing
武林高手
thank you
1月前 #2樓
911degrees
一代宗師
非常感謝,謝謝分享
1月前 #3樓
blue23
超凡入聖№
感謝樓主分享
1月前 #4樓
liyouchai
一代宗師
謝謝樓主分享資源
1月前 #5樓
zzufo
武林高手
感謝樓主的分享!
1月前 #6樓
遊客組