aoloffline
版主

[2016] [大陸] [動作] [WEB-1080P] [BT下載]湄公河行动 Operation.Mekong.2016.UNCUT.1080p.WEBRip.x264.AAC2.0-SHD 2.39GB

-->

◎譯  名 湄公河大案/湄公河

◎片  名 湄公河行動

◎年  代 2016

◎國  家 中國大陸/香港

◎類  別 動作/犯罪

◎語  言 漢語普通話/粵語/泰語/緬甸語/英語

◎上映日期 2016-09-30(中國大陸)/2016-10-07(台灣)

◎IMDb评分  7.0/10 from 826 users

◎IMDb链接  http://www.imdb.com/title/tt6044910/

◎豆瓣评分 8.1/10 from 244,428 users

◎豆瓣鏈接 https://movie.douban.com/subject/25815034/

◎BT之家整理   

◎片  長 124分鍾

◎导  演 林超贤 Dante Lam

◎主  演 张涵予 Hanyu Zhang

      彭于晏 Eddie Peng

      孙淳 Chun Sun

      陈宝国 Baoguo Chen

      冯文娟 Wenjuan Feng

      刘显达子 Xiandazi Liu

      赵健 Jian Zhao

      吴旭东 Xudong Wu

      吴嘉龙 Carl Wu


◎簡  介


  金三角湄公河上,一处被称为“鬼门关”的河段,两艘来自中国的商船遭到不明身份之人的枪击袭击。未过多久,泰国军方召开新闻发布会,指责中国商船贩卖毒品。虽然发布会宣称船员全部逃亡,但是十三具遭受残忍杀害的中国船员尸体很快被人发现。这起胆大妄为的案件令中国警方大为震惊,云南省缉毒总队队长高刚(张涵予 饰)受命带特别行动小组前往泰国,并与情报员方新武(彭于晏 饰)合作接洽。根据现有资料显示,这件案子由盘踞在金三角的大毒枭糯卡所为。糯卡贪婪残忍,胆大包天,是湄公河流域上一颗惊扰运输安全的毒瘤。为了将这个恶棍绳之于法,中国、老挝、缅甸开展了三国联合巡逻,集中对糯卡的制毒窝点进行扫荡。而高刚等人也深入最危险境地,与丧失人性的贩毒分子进行惨烈对决……

  本片根據真實事件改編。


Video
ID                                       : 1
Format                                   : AVC
Format/Info                              : Advanced Video Codec
Format profile                           : [email protected]
Format settings, CABAC                   : Yes
Format settings, ReFrames                : 3 frames
Codec ID                                 : V_MPEG4/ISO/AVC
Duration                                 : 2h 3mn
Bit rate                                 : 2 701 Kbps
Width                                    : 1 920 pixels
Height                                   : 816 pixels
Display aspect ratio                     : 2.35:1
Frame rate mode                          : Constant
Frame rate                               : 24.000 fps
Color space                              : YUV
Chroma subsampling                       : 4:2:0
Bit depth                                : 8 bits
Scan type                                : Progressive
Bits/(Pixel*Frame)                       : 0.072
Stream size                              : 2.34 GiB (98%)
Writing library                          : qiyi.com vtc-test
Default                                  : Yes
Forced                                   : No
Color range                              : Limited
Color primaries                          : BT.709
Transfer characteristics                 : BT.709
Matrix coefficients                      : BT.709

Audio
ID                                       : 2
Format                                   : AAC
Format/Info                              : Advanced Audio Codec
Format profile                           : HE-AAC / LC
Codec ID                                 : A_AAC
Duration                                 : 2h 3mn
Bit rate                                 : 62.9 Kbps
Channel(s)                               : 2 channels
Channel positions                        : Front: L R
Sampling rate                            : 44.1 KHz / 22.05 KHz
Frame rate                               : 21.533 fps (1024 spf)
Compression mode                         : Lossy
Stream size                              : 55.8 MiB (2%)
Default                                  : Yes
Forced                                   : No





1 個附件 售價 大小 下載 時間

Operation.Mekong.2016.CHINESE.UNCUT.1080p.WEBRip.x264.AAC2.0-SHD[btbtt.co].torrent 0 金币 48.53K 18363 次 26天前

#1樓
发帖時間:2016-12-28 22:48:12   |   回複數:11
HeyHD
武林高手
2h 3mn  123分钟  怎么未删减 法
26天前 #2樓
索唱
小有名氣
引用 HeyHD:

2h 3mn  123分钟  怎么未删减 法

因爲之前有120min的刪減版

26天前 #3樓
HeyHD
武林高手
引用 索唱:

因爲之前有120min的刪減版

一直都是123分钟 好不

26天前 #4樓
索唱
小有名氣
引用 HeyHD:

一直都是123分钟 好不

誰說不是了,它標uncut是因爲有一個120min的版本,seehd發過。

26天前 #5樓
blue23
超凡入聖№
感謝樓主分享
26天前 #6樓
liyouchai
一代宗師
謝謝樓主分享資源
26天前 #7樓
911degrees
一代宗師
非常感謝,謝謝分享
25天前 #8樓
zhangfeeling
武林高手
非常感謝,謝謝分享
25天前 #9樓
gklai
小有名氣
谢谢楼主分享,希望是会很精彩的一部電影!
21天前 #10樓
奧沙利文
一派掌門
小頂!!!!!!!!!!
15天前 #11樓
Ghost_wzy
武林盟主
感謝版主分享!!!
12天前 #12樓
遊客組