adua
版主

2010年环球小姐选美大赛Miss Universe HDTV 1080i MPEG2 DD5.1

-->

【原 片 名】Miss Universe 2010
【中 文 名】2010年环球小姐选美大赛
【出品年代】2010
【國  家】美國
【影片长度】84 Mins
【對白語言】英語
【內容簡介】
         8月23日(美国时间)晚,来自全球各地83个国家和地区的佳丽齐聚美国赌城拉斯维加斯,参加2010年环球小姐选美大赛。来自墨西哥22岁的纳瓦雷特(Jimena Navarrete)赢得了2010年环球小姐桂冠。
         各国佳丽首先在泳装、礼服、机智问答等比赛各环节后经过层层筛选,选出五名进入决赛,这五人分别来自墨西哥、澳大利亚、菲律宾、乌克兰和牙买加。最终墨西哥小姐夺冠,菲律宾小姐获得亚军,澳大利亚小姐是季军,泰国小姐则获得最上镜奖。 据悉,被誉为全球现代时尚文化象征的“环球小姐(Miss Universe)”大赛,是当今世界上与世界小姐(Miss World)、国际小姐(Miss International)并称为三大世界级美女大赛的著名赛事。

Format : MPEG-TS
File size : 7.77 GiB
Duration : 1h 24mn
Overall bit rate : 13.2 Mbps
Video #33
ID : 33 (0x21)
Menu ID : 1 (0x1)
Format : MPEG Video
Format version : Version 2
Format profile : [[email protected]][email protected][/email]
Format settings, Matrix : Default
Duration : 1h 24mn
Bit rate mode : Variable
Bit rate : 11.9 Mbps
Nominal bit rate : 65.0 Mbps
Width : 1 920 pixels
Height : 1 080 pixels
Display aspect ratio : 16:9
Frame rate : 29.970 fps
Colorimetry : 4:2:0
Scan type : Interlaced
Scan order : Top Field First
Bits/(Pixel*Frame) : 0.192
Stream size : 7.01 GiB (90%)
Audio #36
ID : 36 (0x24)
Menu ID : 1 (0x1)
Format : AC-3
Format/Info : Audio Coding 3
Duration : 1h 24mn
Bit rate mode : Constant
Bit rate : 384 Kbps
Channel(s) : 6 channels
Channel positions : Front: L C R, Surround: L R, LFE
Sampling rate : 48.0 KHz
Stream size : 231 MiB (3%)
Text #33-608-1
ID : 33 (0x21)608-1
Menu ID : 1 (0x1)
Format : EIA-608
Muxing mode : MPEG Video / EIA-708
Muxing mode, more info : Muxed in Video #1
Duration : 1h 24mn
Stream size : 0.00 Byte (0%)
Text #33-608-0
ID : 33 (0x21)608-0
Menu ID : 1 (0x1)
Format : EIA-608
Muxing mode : MPEG Video / EIA-708
Muxing mode, more info : Muxed in Video #1
Duration : 1h 24mn
Stream size : 0.00 Byte (0%)
Text #33-1
ID : 33 (0x21)1
Menu ID : 1 (0x1)
Format : EIA-708
Muxing mode : MPEG Video / EIA-708
Muxing mode, more info : Muxed in Video #1
Duration : 1h 24mn
Stream size : 0.00 Byte (0%)
#1樓
請幫忙分享到: | Twitter | Google+ | 微博 | 更多… 發帖時間:2010-08-26 20:45:57   |   回複數:8
環球世界101
江湖小蝦
謝謝樓主!不錯!
2012-10-1 #2樓
【雙子♂龍】
武林高手
感謝樓主奉獻!!
2014-2-20 #3樓
【雙子♂龍】
武林高手
感謝樓主奉獻!!
2014-2-20 #4樓
灬影忍者
武林高手
謝謝分享,支持以下!!
2015-5-12 #5樓
淩宅宅佬
武林高手
感謝分享!!!
2016-5-14 #6樓
jingshantt
武林高手

感謝樓主奉獻!!
1月前 #7樓
jingshantt
武林高手

感謝樓主奉獻!!
1月前 #8樓
jingshantt
武林高手

感謝樓主奉獻!!
1月前 #9樓
遊客組